#TITLE:Love Story - English;
#SUBTITLE:- Rain;
#ARTIST:Rain;
#TITLETRANSLIT:;
#SUBTITLETRANSLIT:;
#ARTISTTRANSLIT:;
#CREDIT:GoP-Demon;
#BANNER:rain_lovekjp1.jpg;
#BACKGROUND:17981_2.jpg;
#LYRICSPATH:;
#CDTITLE:;
#MUSIC:rain - lovestory.mp3;
#OFFSET:0.180;
#SAMPLESTART:100.035;
#SAMPLELENGTH:12.000;
#SELECTABLE:YES;
#BPMS:0.000=118.010;
#STOPS:;
#BGCHANGES:1.500=love story.avi=1.000=0=0=1,
290.500=love story 2.avi=1.000=0=0=1,
99999=-nosongbg-=1.000=0=0=0 // don't automatically add -songbackground-
;
// cache tags:
#FIRSTBEAT:1.500;
#LASTBEAT:463.500;
#SONGFILENAME:Songs/Music V.I.P ^_^/Love Story - English/Love Story - Rain.sm;
#HASMUSIC:1;
#HASBANNER:1;
#MUSICLENGTH:242.782;
// end cache tags

//---------------dance-single - ----------------
#NOTES:
     dance-single:
     :
     Challenge:
     9:
     0.450,0.501,0.078,0.078,0.041,726.000,19.000,19.000,0.000,0.000:
0000
0000
0000
1001
0010
0001
1000
0101
,
0010
1000
0100
1010
0001
0010
0100
1001
,
0010
1000
0001
1001
1000
0100
0010
1001
,
0100
0001
0010
1100
1000
0100
0010
1001
,
0010
1000
0100
0011
1000
0001
1000
0101
,
0010
0001
0010
0101
1000
0001
0010
1001
,
1000
0010
0100
1001
1000
0001
0010
1001
,
0010
1001
0110
0000
0000
0000
0000
0100
,
0010
1000
0001
1000
0001
0100
0001
1000
,
0100
0000
0100
0000
0000
0000
0000
0000
1000
0100
1000
0000
0100
0000
0010
0000
,
0001
1000
0000
0000
0001
0100
0001
0010
,
0001
0000
1000
0000
0000
0000
0000
0000
1000
0100
1000
0000
0010
0000
1000
0000
,
0100
0000
1000
0000
0010
0000
0000
0000
1000
0100
1000
0000
0100
0000
1000
0000
,
0001
0010
0000
0010
0001
0010
0100
0010
,
0001
0000
0100
0000
0001
0000
0000
0000
0000
0000
0000
0000
1000
0100
1000
0000
,
0010
1000
0001
0010
0001
0100
0001
1000
,
0010
0100
0001
1000
0100
0010
0001
1000
,
0100
1000
0000
2000
0000
0002
0000
0003
,
3000
0000
0000
0000
1000
0100
1000
0000
0100
0000
1000
0000
0001
0000
0000
0000
,
0000
0000
0000
0000
0001
0010
0001
0000
0100
0000
0001
0000
1000
0000
0100
0000
,
1000
0100
0010
0001
0100
0010
1000
0001
,
0100
0002
0000
2000
0000
0000
3000
0003
,
1000
0001
0100
0001
0000
1000
0100
1000
,
0000
1000
0100
0010
0001
0100
0001
1000
,
1000
0000
0001
0000
1000
0000
0001
0000
1000
0100
1000
0000
0100
0000
1000
0000
,
0001
0100
0010
2002
0000
0000
3003
1000
,
0010
1000
0100
0000
1000
0100
1000
0010
,
1000
0010
1000
0100
0000
0000
0000
1000
,
0100
1000
0100
0000
0001
1000
0000
0001
,
0000
1000
0100
0010
0001
0100
0010
0000
,
1000
0010
0100
0001
0010
0100
1000
0000
,
0001
0000
0001
0100
0001
0100
0001
0100
,
0010
1000
0100
0000
1000
0100
1000
0001
,
0100
0010
2000
0002
0000
0000
3003
1000
,
0010
1000
0001
0000
0010
0001
1000
0100
,
1000
0001
1000
0010
0000
0000
0000
0001
,
0100
0001
0010
0000
1000
0010
0000
0001
,
0000
0100
0001
0100
0001
0010
0001
0000
,
0001
1000
0100
0010
0001
0000
1000
0000
,
0001
0000
0100
0010
1000
0001
0100
0001
,
0010
0001
0100
0001
0000
0001
1000
0100
,
0010
0000
0001
0000
0000
0000
0000
0000
1000
0100
1000
0000
0100
0000
0010
0000
,
0001
1000
0000
0000
0001
0100
0010
1000
,
0010
0100
0000
1000
0001
0010
0001
1000
,
0100
1000
0010
0000
0001
0010
0100
0010
,
0001
0010
0000
1000
0001
1000
0100
0010
,
0001
0000
1000
0000
0100
0000
0000
0000
0000
0000
0000
0000
0001
0010
0001
0000
,
0100
0010
1000
1000
0100
0010
0001
1000
,
0100
0010
0000
1000
0100
1000
0001
0100
,
0001
0002
0000
2003
0000
0001
3000
0001
,
0000
0000
0000
0000
1000
0100
1000
0000
0010
0000
1000
0000
0001
0000
0000
0000
,
0000
0000
0000
0000
1000
0100
1000
0000
0100
0000
1000
0000
0001
0000
0100
0000
,
0010
1000
0100
0001
0100
1000
0100
0010
,
0001
0002
0000
2003
0000
3001
0000
0001
,
1000
0100
0010
0001
0010
0100
1000
0100
,
0000
0010
0100
1000
0010
1000
0010
1000
,
0100
0000
1000
0000
0001
0000
0000
0000
1000
0100
1000
0000
0100
0000
1000
0000
,
0001
1000
0100
1000
0000
0000
0000
0001
,
0100
0010
1000
0000
1000
0001
0100
0001
,
1000
0010
0100
0001
0000
0000
0000
1000
,
0100
0001
0100
0000
0001
0100
0000
0010
,
0000
0001
1000
0010
0100
0001
1000
0000
,
1000
0100
0010
0100
1000
0010
0100
0000
,
0100
0000
0001
1000
0100
0010
0001
0100
,
0001
0010
0001
0000
1000
0001
0010
0001
,
1000
0100
1000
2000
0000
0000
3000
0010
,
1000
0100
0010
0000
1000
0001
0010
0001
,
0100
0001
0001
2000
0000
0000
3000
0010
,
1000
0100
0010
0000
0001
0100
0000
1000
,
0000
0100
1000
0100
0010
0001
0100
0000
,
1000
0100
0010
0001
0100
0000
1000
0000
,
0100
0000
0100
1000
0100
1000
0100
0010
,
0100
1000
0010
0000
0000
0000
0000
0000
,
1000
0100
1000
0000
0100
0000
0010
0000
0000
0000
0000
0000
0000
0000
0000
0000
,
0001
0010
0001
0000
0100
0000
1000
0000
0000
0000
0000
0000
0000
0000
1000
0000
,
0001
0010
0100
0010
0100
1000
0001
0010
,
0100
0010
0001
1000
0100
0000
0000
0000
,
1000
0100
1000
0000
0100
0000
0010
0000
0000
0000
0000
0000
0000
0000
0000
0000
,
0001
0010
0001
0000
0100
0000
0001
0000
1000
0000
0000
0000
0000
0000
1000
0000
,
0100
0010
0000
0001
0010
0100
0000
0100
,
0010
0001
1000
0010
0010
0000
1000
0100
,
0010
0001
0000
1000
0100
0000
0001
0010
,
0001
0100
0001
0010
0100
0000
1000
0100
,
0001
0100
0000
0100
1000
0000
0010
0100
,
0001
1000
0010
1000
0001
0010
0100
0000
,
0000
1000
0100
1000
0010
0000
0000
0001
,
1000
0100
0010
0100
0010
1000
0010
0000
,
0001
0010
0001
0000
1000
0000
0010
0000
2000
0000
0000
0000
0000
0000
0000
0000
,
0000
0010
0100
0001
0010
0000
0100
0001
,
0010
0100
0001
0010
3100
2001
0010
0100
,
0001
0010
0001
0100
0010
0000
0100
0001
,
0100
3010
0100
0001
1000
0100
0000
0000
,
0000
1000
0100
1000
0100
0000
1000
0100
,
0000
0001
0000
0100
0010
0100
0001
0100
,
0001
0000
1000
0100
1000
0001
0010
0100
,
1000
0000
0010
0000
1000
0100
1000
0100
,
1000
0000
0010
0000
0100
0000
0001
0000
0010
0000
0000
0000
1000
0100
1000
0000
,
0001
0010
0100
1000
0001
0100
0000
0000
,
0000
0000
1000
0000
0001
0000
0100
0000
1000
0000
0000
0000
0001
0010
0001
0000
,
1000
0100
0010
0001
1000
0100
0000
0000
,
0000
0100
1000
0001
1000
0000
0010
1000
,
0000
0100
0000
0001
0010
0100
1000
0001
,
0002
0000
1000
0100
0010
1000
0010
0100
,
1000
0003
1000
0000
1000
0100
0010
0001
,
0100
0001
0010
0001
1000
0001
1000
0001
,
0100
0000
1000
0100
1000
0000
0001
0010
,
0001
0000
1000
0100
1000
0000
1000
0100
,
0010
0000
0001
0100
0010
0000
1000
0010
,
1000
0100
1000
0000
0001
0000
1000
0000
0001
0000
0100
0000
0001
0000
0100
0000
,
0010
0000
0001
0010
0001
0000
1000
0100
,
1000
0000
0100
0010
0100
0000
0001
0010
,
0001
0000
0001
0100
0010
0000
1000
0000
,
2002
0000
0000
0000
,
0000
0000
0000
0000
,
0000
0000
0000
0000
,
0000
0000
0000
0000
0000
0000
0000
3003
;

//---------------dance-single - Challenge Ed----------------
#NOTES:
     dance-single:
     Challenge Ed:
     Edit:
     9:
     0.450,0.500,0.078,0.078,0.041,726.000,19.000,19.000,0.000,0.000:
0000
0000
0000
1001
0010
0001
1000
0101
,
0010
1000
0100
1010
0001
0010
0100
1001
,
0010
1000
0001
1001
1000
0100
0010
1001
,
0100
0001
0010
1100
1000
0100
0010
1001
,
0010
1000
0100
0011
1000
0001
1000
0101
,
0010
0001
0010
0101
1000
0001
0010
1001
,
1000
0010
0100
1001
1000
0001
0010
1001
,
0010
1001
0110
0000
0000
0000
0000
0100
,
0010
1000
0001
1000
0001
0100
0001
1000
,
0100
0000
0100
0000
0000
0000
0000
0000
1000
0100
1000
0000
0100
0000
0010
0000
,
0001
1000
0000
0000
0001
0100
0001
0010
,
0001
0000
1000
0000
0000
0000
0000
0000
1000
0100
1000
0000
0010
0000
1000
0000
,
0100
0000
1000
0000
0010
0000
0000
0000
1000
0100
1000
0000
0100
0000
1000
0000
,
0001
0010
0000
0010
0001
0010
0100
0010
,
0001
0000
0100
0000
0001
0000
0000
0000
0000
0000
0000
0000
1000
0100
1000
0000
,
0010
1000
0001
0010
0001
0100
0001
1000
,
0010
0100
0001
1000
0100
0010
0001
1000
,
0100
1000
0000
2000
0000
0002
0000
0003
,
3000
0000
0000
0000
1000
0100
1000
0000
0100
0000
1000
0000
0001
0000
0000
0000
,
0000
0000
0000
0000
0001
0010
0001
0000
0100
0000
0001
0000
1000
0000
0100
0000
,
1000
0100
0010
0001
0100
0010
1000
0001
,
0100
0002
0000
2000
0000
0000
3000
0003
,
1000
0001
0100
0001
0000
1000
0100
1000
,
0000
1000
0100
0010
0001
0100
0001
1000
,
1000
0000
0001
0000
1000
0000
0001
0000
1000
0100
1000
0000
0100
0000
1000
0000
,
0001
0100
0010
2002
0000
0000
3003
1000
,
0010
1000
0100
0000
1000
0100
1000
0010
,
1000
0010
1000
0100
0000
0000
0000
1000
,
0100
1000
0100
0000
0001
1000
0000
0001
,
0000
1000
0100
0010
0001
0100
0010
0000
,
1000
0010
0100
0001
0010
0100
1000
0000
,
0001
0000
0001
0100
0001
0100
0001
0100
,
0010
1000
0100
0000
1000
0100
1000
0001
,
0100
0010
2000
0002
0000
0000
3003
1000
,
0010
1000
0001
0000
0010
0001
1000
0100
,
1000
0001
1000
0010
0000
0000
0000
0001
,
0100
0001
0010
0000
1000
0010
0000
0001
,
0000
0100
0001
0100
0001
0010
0001
0000
,
0001
1000
0100
0010
0001
0000
1000
0000
,
0001
0000
0100
0010
1000
0001
0100
0001
,
0010
0001
0100
0001
0000
0001
1000
0100
,
0010
0000
0001
0000
0000
0000
0000
0000
1000
0100
1000
0000
0100
0000
0010
0000
,
0001
1000
0000
0000
0001
0100
0010
1000
,
0010
0100
0000
1000
0001
0010
0001
1000
,
0100
1000
0010
0000
0001
0010
0100
0010
,
0001
0010
0000
1000
0001
1000
0100
0010
,
0001
0000
1000
0000
0100
0000
0000
0000
0000
0000
0000
0000
0001
0010
0001
0000
,
0100
0010
1000
1000
0100
0010
0001
1000
,
0100
0010
0000
1000
0100
1000
0001
0100
,
0001
0002
0000
2003
0000
0001
3000
0001
,
0000
0000
0000
0000
1000
0100
1000
0000
0010
0000
1000
0000
0001
0000
0000
0000
,
0000
0000
0000
0000
1000
0100
1000
0000
0100
0000
1000
0000
0001
0000
0100
0000
,
0010
1000
0100
0001
0100
1000
0100
0010
,
0001
0002
0000
2003
0000
3001
0000
0001
,
1000
0100
0010
0001
0010
0100
1000
0100
,
0000
0010
0100
1000
0010
1000
0010
1000
,
0100
0000
1000
0000
0001
0000
0000
0000
1000
0100
1000
0000
0100
0000
1000
0000
,
0001
1000
0100
1000
0000
0000
0000
0001
,
0100
0010
1000
0000
1000
0001
0100
0001
,
1000
0010
0100
0001
0000
0000
0000
1000
,
0100
0001
0100
0000
0001
0100
0000
0010
,
0000
0001
1000
0010
0100
0001
1000
0000
,
1000
0100
0010
0100
1000
0010
0100
0000
,
0100
0000
0001
1000
0100
0010
0001
0100
,
0001
0010
0001
0000
1000
0001
0010
0001
,
1000
0100
1000
2000
0000
0000
3000
0010
,
1000
0100
0010
0000
1000
0001
0010
0001
,
0100
0001
0001
2000
0000
0000
3000
0010
,
1000
0100
0010
0000
0001
0100
0000
1000
,
0000
0100
1000
0100
0010
0001
0100
0000
,
1000
0100
0010
0001
0100
0000
1000
0000
,
0100
0000
0100
1000
0100
1000
0100
0010
,
0100
0000
1000
0000
0010
0000
0000
0000
0000
0000
0000
0000
1000
0100
1000
0000
,
0100
0000
0010
0000
0000
0000
0000
0000
0000
0000
0000
0000
0001
0010
0001
0000
,
0100
1000
0000
0000
0000
1000
0001
0010
,
0100
0010
0100
1000
0001
0010
0100
0010
,
0001
0000
1000
0000
0100
0000
0000
0000
0000
0000
0000
0000
1000
0100
1000
0000
,
0100
0000
0010
0000
0000
0000
0000
0000
0000
0000
0000
0000
0001
0010
0001
0000
,
0100
0001
1000
0000
0000
1000
0100
0010
,
0000
0001
0010
0100
0000
0100
0010
0001
,
1000
0010
0010
0000
1000
0100
0010
0001
,
0000
1000
0100
0000
0001
0010
0001
0100
,
0001
0010
0100
0000
1000
0100
0001
0100
,
0000
0100
1000
0000
0010
0100
0001
1000
,
0010
1000
0001
0010
0100
0000
0000
1000
,
0100
1000
0010
0000
0000
0001
1000
0100
,
0010
0000
0100
0000
0010
0000
1000
0000
0010
0000
0000
0000
0001
0010
0001
0000
,
1000
0010
2000
0000
0000
0000
0000
0010
,
0100
0001
0010
0000
0100
0001
0010
0100
,
0001
0010
3100
2001
0010
0100
0001
0010
,
0001
0100
0010
0000
0100
0001
0100
3010
,
0100
0001
1000
0100
0000
0000
0000
1000
,
0100
1000
0100
0000
1000
0100
0000
0001
,
0000
0100
0010
0100
0001
0100
0001
0000
,
1000
0100
1000
0001
0010
0100
1000
0000
,
0010
0000
1000
0100
1000
0100
1000
0010
,
0100
0000
0001
0000
0010
0000
0000
0000
1000
0100
1000
0000
0001
0000
0010
0000
,
0100
1000
0001
0100
0000
0000
0000
1000
,
0001
0000
0100
0000
1000
0000
0000
0000
0001
0010
0001
0000
1000
0000
0100
0000
,
0010
0001
1000
0100
0000
0000
0000
0100
,
1000
0001
1000
0000
0010
1000
0000
0100
,
0000
0001
0010
0100
1000
0001
0002
0000
,
1000
0100
0010
1000
0010
0100
1000
0003
,
1000
0000
1000
0100
0010
0001
0100
0001
,
0010
0001
1000
0001
1000
0001
0100
0000
,
1000
0100
1000
0000
0001
0010
0001
0000
,
1000
0100
1000
0000
1000
0100
0010
0000
,
0001
0000
0100
0000
0010
0000
0000
0000
1000
0000
0010
0000
1000
0100
1000
0000
,
0001
1000
0001
0100
0001
0100
0010
0000
,
0001
0010
0001
0000
1000
0100
1000
0000
,
0100
0010
0100
0000
0001
0010
0001
0000
,
0001
0100
0010
0000
1000
0000
2002
0000
,
0000
0000
0000
0000
,
0000
0000
0000
0000
,
0000
0000
0000
0000
,
0000
0000
0000
0000
0000
3003
0000
0000
;

//---------------dance-single - Expert----------------
#NOTES:
     dance-single:
     Expert:
     Hard:
     7:
     0.227,0.263,0.016,0.070,0.000,365.000,4.000,17.000,0.000,0.000:
0000
0000
0000
1000
0000
0001
0000
0100
,
0000
1000
0000
1000
0000
0010
0000
0001
,
0000
1000
0000
1001
0000
0100
0000
1000
,
0000
0001
0000
0100
0000
0100
0000
1000
,
0000
1000
0000
0001
0000
0001
0000
0100
,
0000
0001
0000
0100
0000
0001
0000
1000
,
0000
0010
0000
1000
0000
0001
0000
1000
,
0000
0001
0000
0000
0000
0000
0000
0100
,
0000
1000
0000
1000
0000
0100
0000
1000
,
0000
0100
0000
0000
1000
0000
0100
0000
,
0001
0000
0001
0001
,
0001
0000
1000
0010
,
0100
0010
1000
0100
,
0001
0000
0001
0100
,
0001
0001
0000
1000
,
0010
0001
0001
0001
,
0010
0001
0100
0001
,
0100
0000
0000
2000
0000
0002
0000
0003
,
3000
1000
0100
0001
,
0000
0001
0100
1000
,
1000
0010
0100
1000
,
0100
0002
0000
2000
0000
0000
3000
0003
,
1000
0100
0000
0100
,
0000
0100
0001
0001
,
1000
1000
1000
0100
,
0001
0000
0010
2002
0000
0000
3003
0000
,
0010
0100
1000
0001
,
0100
0000
1000
0000
0000
0000
0000
1000
,
0000
0100
0000
0000
0000
1000
0000
0001
,
0000
1000
0000
0010
0000
0100
0000
0000
,
0000
0010
0000
0001
0000
0100
0000
0000
,
0001
1000
0010
0001
,
0010
0100
1000
1000
,
0100
0000
2000
0002
0000
0000
3003
1000
,
0000
1000
0000
0000
0000
0001
0000
0100
,
0000
0001
0000
0010
0000
0000
0000
0001
,
0000
0001
0000
0000
0000
0010
0000
0001
,
0000
0100
0000
0100
0000
0010
0000
0000
,
0000
1000
0000
0010
0000
0000
0000
0000
,
0000
0000
0000
0010
0000
0001
0000
0001
,
0000
0001
0000
0001
0000
0001
0000
0100
,
0000
0001
0000
0000
1000
0000
0100
0000
,
0001
0000
0001
0010
,
0010
0000
0001
0001
,
0100
0010
0001
0100
,
0001
0000
0000
1000
0000
1000
0000
0010
,
0000
1000
0000
0000
0000
0000
0001
0000
,
0100
1000
0100
0001
,
0100
0000
0100
0001
,
0001
0000
0000
2000
0000
0001
3000
0000
,
0000
1000
0010
0001
,
0000
1000
0100
0001
,
0010
0100
1000
0100
,
0001
0000
0000
2000
0000
3000
0000
0000
,
1000
0010
0010
1000
,
0000
0100
0010
0010
,
0100
0001
1000
0100
,
0001
0000
0100
0000
0000
0000
0000
0001
,
0000
0010
0000
0000
0000
1000
0000
0001
,
0000
0010
0000
0001
0000
0000
0000
1000
,
0000
0001
0000
0000
0000
0100
0000
0010
,
0000
0001
0000
0010
0000
0001
0000
0000
,
0000
0100
0000
0100
0000
0010
0000
0000
,
0000
0000
0000
1000
0000
0010
0000
0100
,
0000
0010
0000
0000
0000
0001
0000
0001
,
0000
0100
0000
2000
0000
0000
3000
0010
,
0000
0100
0000
0000
0000
0001
0000
0100
,
0000
0001
0000
2000
0000
0000
3000
0010
,
0000
0100
0000
0000
0000
0100
0000
1000
,
0000
0100
0000
0100
0000
0001
0000
0000
,
0000
0100
0000
0001
0000
0000
0000
0000
,
0100
0100
1000
0001
,
0100
0010
0000
0000
,
1000
0100
0000
0000
,
0001
0100
0000
0000
,
0001
0100
0100
0001
,
0100
0001
0100
0000
,
1000
0100
0000
0000
,
0001
0000
0100
0000
1000
0000
0000
1000
,
0000
0010
0000
0001
0000
0100
0000
0100
,
0000
0001
0000
0010
0000
0000
0000
0100
,
0000
0001
0000
1000
0000
0000
0000
0010
,
0000
0100
0000
0010
0000
0000
0000
0100
,
0000
0010
0000
0100
0000
0000
0000
0100
,
0000
1000
0000
1000
0000
0010
0000
0000
,
0000
1000
0000
1000
0000
0000
0000
0001
,
0000
0100
0000
0100
0000
1000
0000
0000
,
0000
0001
0000
0010
2000
0000
0000
0000
,
0000
0010
0000
0001
0000
0000
0000
0001
,
0000
0100
0000
0010
3000
2001
0000
0100
,
0000
0010
0000
0100
0000
0000
0000
0001
,
0000
3010
0000
0001
0000
0100
0000
0000
,
0000
1000
0000
1000
0000
0000
0000
0100
,
0000
0001
0000
0100
0000
0100
0000
0100
,
0000
0000
0000
0100
0000
0001
0000
0100
,
0000
0000
0000
0000
0000
0100
0000
0100
,
0000
0010
0000
0001
0000
0000
1000
0000
,
0001
0100
0001
0000
,
0000
1000
0000
0100
0000
0000
0001
0000
,
1000
0010
1000
0000
,
0000
1000
1000
0010
,
0000
0000
0010
1000
,
0002
1000
0010
0010
,
1000
0003
1000
0000
1000
0000
0010
0000
,
0100
0010
1000
1000
,
0100
1000
1000
0001
,
0001
1000
1000
1000
,
0010
0001
0010
1000
,
1000
0001
0001
0001
,
0010
0001
0001
1000
,
1000
0100
0100
0001
,
0001
0001
0010
1000
,
2002
0000
0000
0000
,
0000
0000
0000
0000
,
0000
0000
0000
0000
,
0000
0000
0000
0000
0000
0000
0000
3003
;

//---------------dance-single - Hard----------------
#NOTES:
     dance-single:
     Hard:
     Medium:
     5:
     0.128,0.143,0.004,0.041,0.000,207.000,1.000,10.000,0.000,0.000:

0000
0000
0000
1000
0000
0000
0000
0100
,
0000
0000
0000
1000
0000
0000
0000
0001
,
0000
1000
0000
0000
0000
0100
0000
0000
,
0000
0001
0000
0100
0000
0000
0000
1000
,
0000
0000
0000
0001
0000
0000
0000
0100
,
0000
0000
0000
0100
0000
0000
0000
1000
,
0000
0000
0000
1000
0000
0000
0000
1000
,
0000
0000
0000
0000
0000
0000
0000
0100
,
0000
0000
0000
1000
0000
0100
0000
0000
,
0000
0100
0000
0000
1000
0000
0000
0000
,
0001
0000
0001
0000
,
0001
0000
1000
0000
,
0100
0000
1000
0000
,
0001
0000
0001
0000
,
0001
0000
0000
1000
,
0000
0001
0000
0001
,
0000
0001
0000
0001
,
0000
0000
0000
2000
0000
0000
0000
0000
,
3000
1000
0000
0001
,
0000
0001
0000
1000
,
0000
0010
0000
1000
,
0000
0002
0000
0000
0000
0000
0000
0003
,
1000
0000
0000
0100
,
0000
0100
0000
0001
,
0000
1000
0000
0100
,
0000
0000
0000
1000
0000
0000
0000
0000
,
0010
0000
1000
0001
,
0000
0000
1000
0000
0000
0000
0000
1000
,
0000
0000
0000
0000
0000
1000
0000
0000
,
0000
1000
0000
0000
0000
0100
0000
0000
,
0000
0010
0000
0000
0000
0100
0000
0000
,
0001
0000
0010
0000
,
0010
0000
1000
0000
,
0100
0000
2000
0000
0000
0000
3000
1000
,
0000
0000
0000
0000
0000
0001
0000
0000
,
0000
0001
0000
0000
0000
0000
0000
0001
,
0000
0000
0000
0000
0000
0010
0000
0000
,
0000
0100
0000
0000
0000
0010
0000
0000
,
0000
1000
0000
0010
0000
0000
0000
0000
,
0000
0000
0000
0010
0000
0000
0000
0001
,
0000
0000
0000
0001
0000
0000
0000
0100
,
0000
0000
1000
0000
,
0001
0000
0001
0000
,
0010
0000
0001
0000
,
0100
0000
0001
0000
,
0001
0000
0000
1000
0000
0000
0000
0010
,
0000
0000
0000
0001
,
0000
1000
0000
0001
,
0000
0000
0100
0000
,
0001
0000
0000
2000
0000
0001
3000
0000
,
0000
1000
0000
0001
,
0000
1000
0000
0001
,
0000
0100
0000
0100
,
0000
0000
0000
2000
0000
3000
0000
0000
,
1000
0000
0010
0000
,
0000
0100
0000
0010
,
0000
0001
0000
0100
,
0000
0000
0100
0000
0000
0000
0000
0001
,
0000
0000
0000
0000
0000
1000
0000
0000
,
0000
0010
0000
0000
0000
0000
0000
1000
,
0000
0000
0000
0000
0000
0100
0000
0000
,
0000
0001
0000
0000
0000
0001
0000
0000
,
0000
0100
0000
0000
0000
0010
0000
0000
,
0000
0000
0000
1000
0000
0000
0000
0100
,
0000
0000
0000
0000
0000
0001
0000
0000
,
0000
0100
0000
0000
0000
0000
0000
0010
,
0000
0000
0000
0000
0000
0001
0000
0000
,
0000
0001
0000
0000
0000
0000
0000
0010
,
0000
0000
0000
0000
0000
0100
0000
0000
,
0000
0100
0000
0000
0000
0001
0000
0000
,
0000
0100
0000
0000
0000
0000
0000
0000
,
0100
0000
1000
0000
,
0100
0000
0000
0000
,
1000
0000
0000
0000
,
0001
0000
0000
0000
,
0001
0000
0100
0000
,
0100
0000
0100
0000
,
1000
0000
0000
0000
,
0001
0000
0000
0000
1000
0000
0000
1000
,
0000
0000
0000
0001
0000
0000
0000
0100
,
0000
0000
0000
0010
0000
0000
0000
0100
,
0000
0000
0000
1000
0000
0000
0000
0010
,
0000
0000
0000
1000
0000
0000
0000
0100
,
0000
0000
0000
0100
0000
0000
0000
0100
,
0000
0000
0000
1000
0000
0010
0000
0000
,
0000
1000
0000
0000
0000
0000
0000
0001
,
0000
0100
0000
0000
0000
1000
0000
0000
,
0000
0001
0000
0000
2000
0000
0000
0000
,
0000
0010
0000
0000
0000
0000
0000
0001
,
0000
0000
0000
0010
3000
2000
0000
0100
,
0000
0000
0000
0100
0000
0000
0000
0001
,
0000
3000
0000
0001
0000
0100
0000
0000
,
0000
1000
0000
0000
0000
0000
0000
0100
,
0000
0000
0000
0100
0000
0000
0000
0100
,
0000
0000
0000
0100
0000
0000
0000
1000
,
0000
0000
0000
0000
0000
0100
0000
0000
,
0000
0010
0000
0000
0000
0000
1000
0000
,
0000
0100
0000
0000
,
0000
1000
0000
0000
0000
0000
0001
0000
,
0000
0010
0000
0000
,
0000
1000
0000
0010
,
0000
0000
0010
0000
,
0002
1000
0000
0010
,
0000
0003
1000
0000
0000
0000
0010
0000
,
0000
0010
0000
1000
,
0000
1000
0000
0001
,
0000
1000
0000
1000
,
0000
0001
0000
1000
,
0000
0001
0000
0001
,
0000
0001
0000
1000
,
0000
0100
0000
0001
,
0000
0001
0000
0000
,
2002
0000
0000
0000
,
0000
0000
0000
0000
,
0000
0000
0000
0000
,
0000
0000
0000
0000
0000
0000
0000
3003
;
